Bit Torrent Scene a public file sharing platform Home Upload Categories Collections Blog About

John Carter DVDRIP LATINO

DOWNLOAD TORRENT

Posted on May 19, 2012 in Movies » Misc , downloaded 12 times

Size: 805.3 MB , Seeds: 0 , Peers: 0 ( Updated December 7, 2014 - Refresh )

* Download via Magnet Link , * To download files you need a Bittorrent Client , * How to download torrents from Bit Torrent Scene?

advertising ( remove )

External Info

Subtitles | Trailer | Wikipedia | Other Info

Internal Files

John Cartet 2012 DVDRip Latino.avi
John Cartet 2012 DVDRip Latino.avi   804.85 MB

Hash Code

b9df16eefff1a5ca8e6e74336d5cfe24df7099b7

Description


Generalidades

Calificación: 7,0/10 34.863 votos »
Director: Andrew Stanton
Escritores:
Andrew Stanton (guión) &
Mark Andrews (guión) ...
Ver más »
Fecha de Estreno: 9 marzo 2012 (Colombia)
Género: Acción | Aventura | Fantasía | Ciencia-Ficción

Idioma: Español latino
Subtitulos: No

Video
ID : 0
Format : MPEG-4 Visual
Format profile : Simple@L3
Format settings, BVOP : No
Format settings, QPel : No
Format settings, GMC : No warppoints
Format settings, Matrix : Default (H.263)
Codec ID : XVID
Codec ID/Hint : XviD
Duration : 2h 12mn
Bit rate : 747 Kbps
Width : 608 pixels
Height : 256 pixels
Display aspect ratio : 2.35:1
Frame rate : 23.976 fps
Color space : YUV
Chroma subsampling : 4:2:0
Bit depth : 8 bits
Scan type : Progressive
Bits/(Pixel*Frame) : 0.200
Stream size : 705 MiB (88%)
Writing library : XviD 1.2.1 (UTC 2008-12-04)

Audio
ID : 1
Format : MPEG Audio
Format version : Version 1
Format profile : Layer 3
Mode : Joint stereo
Mode extension : MS Stereo
Codec ID : 55
Codec ID/Hint : MP3
Duration : 2h 12mn
Bit rate mode : Constant
Bit rate : 96.0 Kbps
Channel(s) : 2 channels
Sampling rate : 48.0 KHz
Stream size : 90.7 MiB (11%)
Alignment : Split accross interleaves
Interleave, duration : 42 ms (1.00 video frame)
Interleave, preload duration : 500 ms
Language : Latin / Aragonese

Torrent location

http://thepiratebay.se/torrent/7280108/John_Carter_DVDRIP_LATINO

Scrape History ( seeds + peers )

Trackers

Refresh Leechers : Updated December 7, 2014

1. http://tracker.thepiratebay.org/announce

2. udp://tracker.openbittorrent.com:80

3. udp://tracker.ccc.de:80

4. udp://tracker.publicbt.com:80

Comments

You must log in to add a comment.

Embed Code

Sharing Widget

Top Movies ( auto generated report )

FILENAME SIZE SEEDS PEERS ADDED UPD
[i] Furious 7 2015 R6 TRUEFRENCH MD XviD-KR4K3N avi
Movies - Action , Quality: Audio 6/10 - Video 6/10
1.37 GB 20597 6972 2 days 2 hours
[i] Avengers Age of Ultron {2015} ENG CAM XVID AC3 MURD3R
Movies - Action , Quality: Audio 6/10 - Video 7/10
1.67 GB 16693 15251 1 day 2 hours
[i] American Sniper 2014 FRENCH DVDSCR XviD MD-ProZaiK avi
Movies - Action , Quality: Audio 6/10 - Video 6/10
1.01 GB 7742 504 1 day 8 hours
[i] Fifty Shades of Grey (2015) 720p BrRip x264 - YIFY 876.5 MB 6905 10013 2 days 1 day
[i] The DUFF 2015 HDRip XviD AC3-EVO
Movies - Comedy , Quality: Audio 8/10 - Video 8/10
1.39 GB 6091 7494 22 hours 20 hours
[i] Adult Beginners 2015 HDRip XviD AC3-EVO
Movies - Comedy , Quality: Audio 8/10 - Video 8/10
1.41 GB 5907 4871 2 days 2 hours
[i] Avengers Age of Ultron 2015 CAM x264 AC3 TiTAN
Movies - Adventure , Quality: Audio 6/10 - Video 6/10
1.6 GB 5781 5138 1 day 7 hours
[i] Mercenary Absolution 2015 BRRip XviD AC3-EVO
Movies - Action , Quality: Audio 8/10 - Video 8/10
1.36 GB 5639 4702 2 days 1 day
[i] Skin.Trade.2014.HDRip.XViD-ETRG
Movies - Action , Quality: Audio 8/10 - Video 8/10
705.32 MB 5567 3437 3 days 2 hours
[i] Fifty Shades of Grey 2015 UNRATED BRRip XviD-ETRG
Movies - Drama , Quality: Audio 9/10 - Video 9/10
706.85 MB 2826 2686 1 day 2 hours